Repo Men TS XViD-IMAGiNE Watch Repo Men TS XViD-IMAGiNE

Posted: 26th March 2010 by Jay in Action, Movies
Tags: Repo Men, TS XViD-IMAGiNE
0

Ripper ………..: IMAGiNE IMDB Rating…….:6.3/10
Video Codec…….: XVID Release Date……:23/03/10
Audio Codec…….:MP3 Theatre Date……:19/03/10
Audio Bitrate…..:128 Runtime…….:1h 45mn
Subtitles………:NIL Language……….:ENGLISH
Resolution……720 x 304 IMDb URL……….:http://www.imdb.com/title/tt1053424/

DETAILS:

Video
Format : MPEG-4 Visual
Format profile : Streaming Video@L1
Format settings, BVOP : Yes
Format settings, QPel : No
Format settings, GMC : No warppoints
Format settings, Matrix : Default
Muxing mode : Packed bitstream
Codec ID : XVID
Codec ID/Hint : XviD
Duration : 1h 45mn
Bit rate : 1 730 Kbps
Width : 720 pixels
Height : 304 pixels
Display aspect ratio : 2.35
Frame rate : 23.976 fps
Resolution : 24 bits
Colorimetry : 4:2:0
Scan type : Progressive
Bits/(Pixel*Frame) : 0.330
Stream size : 1.27 GiB (93%)
Writing library : XviD 50

Audio
Format : MPEG Audio
Format version : Version 1
Format profile : Layer 3
Codec ID : 55
Codec ID/Hint : MP3
Duration : 1h 45mn
Bit rate mode : Constant
Bit rate : 128 Kbps
Channel(s) : 2 channels
Sampling rate : 48.0 KHz
Resolution : 16 bits
Stream size : 96.3 MiB (7%)
Alignment : Split accross interleaves
Interleave, duration : 42 ms (1.00 video frame)
Interleave, preload duration : 500 ms

NOTES:

IMAGiNE bringing you another release…..Repo Men
Here we go again we another decent TS,got to be honest and say it is not the best we’ve done.
The movie was pretty much a dark film which made it harder to do and also harder to sync.
So being a dark film we opted to leave the contrast off so you can see it better…so the black does look more like
a dark grey now.
Audio is pretty nice so no real problems theres.

Enjoy.

Screens

Download

No related posts.

  • Share on Facebook
  • Tweet this
  • Digg It
  • Add to delicious
  • Stumble upon it
  • Share on technorati